DaVinci Resolve brak audio

Jeżyk-1

DaVinci Resolve brak audio

22.02.2021, 11:25

Dzień dobry. Od kilku dni próbuje uruchomić dźwięk w importowanych plikach.mp4 ale nie wychodzi mi to.
Najpierw zainstalowałem wersje 17 beta, lecz jak zaczął się problem z audio, to odinstalowałem i zainstalowałem wersje 16.
Z tego co zauważyłem to pliki video z dźwiękiem stereo działają poprawnie, a z dźwiękiem mono w ogóle. Nie mam ani fali na timeline ani mikser nie wykazuje aktywności. Jeden film audio wrzuciłem do konwertera online i zaczął działać, ale to chyba nie o to chodzi by każdy plik konwertować.
Może ktoś miał już podobny przypadek, i pomógł by rozwiązać ten problem? Z góry dziękuje za porady.
alias
Awatar użytkownika

DaVinci Resolve brak audio

22.02.2021, 18:15

podaj parametry pliku - najlepiej użyj do tego MediaInfo
bez tego nikt tu nic nie pomoże
Jeżyk-1

DaVinci Resolve brak audio

27.02.2021, 13:20

działa dźwięk:

General
Complete name : E:\WATCH OUT\logo\działa dźwięk.mp4
Format : MPEG-4
Format profile : Base Media
Codec ID : isom (isom/iso2/avc1/mp41)
File size : 3.39 MiB
Duration : 15 s 464 ms
Overall bit rate : 1 837 kb/s
encoder : Lavf58.20.100

Video
ID : 1
Format : AVC
Format/Info : Advanced Video Codec
Format profile : [email protected]
Format settings : CABAC / 5 Ref Frames
Format settings, CABAC : Yes
Format settings, Reference frames : 5 frames
Codec ID : avc1
Codec ID/Info : Advanced Video Coding
Duration : 15 s 441 ms
Bit rate : 1 698 kb/s
Width : 720 pixels
Height : 1 280 pixels
Display aspect ratio : 0.563
Frame rate mode : Constant
Frame rate : 59.000 FPS
Color space : YUV
Chroma subsampling : 4:2:0
Bit depth : 8 bits
Scan type : Progressive
Bits/(Pixel*Frame) : 0.031
Stream size : 3.13 MiB (92%)
Writing library : x264 core 148
Encoding settings : cabac=1 / ref=5 / deblock=1:0:0 / analyse=0x3:0x113 / me=hex / subme=8 / psy=1 / psy_rd=1.00:0.00 / mixed_ref=1 / me_range=16 / chroma_me=1 / trellis=2 / 8x8dct=1 / cqm=0 / deadzone=21,11 / fast_pskip=1 / chroma_qp_offset=-2 / threads=40 / lookahead_threads=6 / sliced_threads=0 / nr=0 / decimate=1 / interlaced=0 / bluray_compat=0 / constrained_intra=0 / bframes=3 / b_pyramid=2 / b_adapt=1 / b_bias=0 / direct=3 / weightb=1 / open_gop=0 / weightp=2 / keyint=250 / keyint_min=25 / scenecut=40 / intra_refresh=0 / rc_lookahead=50 / rc=crf / mbtree=1 / crf=26.0 / qcomp=0.60 / qpmin=0 / qpmax=69 / qpstep=4 / vbv_maxrate=4000 / vbv_bufsize=8000 / crf_max=0.0 / nal_hrd=none / filler=0 / ip_ratio=1.40 / aq=1:1.00
Color range : Limited
Color primaries : BT.709
Transfer characteristics : BT.709
Matrix coefficients : BT.709
Codec configuration box : avcC

Audio
ID : 2
Format : AAC LC
Format/Info : Advanced Audio Codec Low Complexity
Codec ID : mp4a-40-2
Duration : 15 s 464 ms
Duration_LastFrame : -1 ms
Bit rate mode : Constant
Bit rate : 128 kb/s
Channel(s) : 2 channels
Channel layout : L R
Sampling rate : 44.1 kHz
Frame rate : 43.066 FPS (1024 SPF)
Compression mode : Lossy
Stream size : 242 KiB (7%)
Default : Yes
Alternate group : 1

Dodano po 30 sekundach:
nie działa dźwięk:

General
Complete name : E:\WATCH OUT\logo\nie działa dźwięk.mp4
Format : MPEG-4
Format profile : Base Media
Codec ID : isom (isom/iso2/avc1/mp41)
File size : 1.84 MiB
Duration : 10 s 679 ms
Overall bit rate : 1 442 kb/s
encoder : Lavf58.20.100

Video
ID : 1
Format : AVC
Format/Info : Advanced Video Codec
Format profile : [email protected]
Format settings : CABAC / 5 Ref Frames
Format settings, CABAC : Yes
Format settings, Reference frames : 5 frames
Codec ID : avc1
Codec ID/Info : Advanced Video Coding
Duration : 10 s 534 ms
Bit rate : 1 422 kb/s
Width : 540 pixels
Height : 960 pixels
Display aspect ratio : 0.563
Frame rate mode : Constant
Frame rate : 30.000 FPS
Color space : YUV
Chroma subsampling : 4:2:0
Bit depth : 8 bits
Scan type : Progressive
Bits/(Pixel*Frame) : 0.091
Stream size : 1.79 MiB (97%)
Writing library : x264 core 148
Encoding settings : cabac=1 / ref=5 / deblock=1:0:0 / analyse=0x3:0x113 / me=hex / subme=8 / psy=1 / psy_rd=1.00:0.00 / mixed_ref=1 / me_range=16 / chroma_me=1 / trellis=2 / 8x8dct=1 / cqm=0 / deadzone=21,11 / fast_pskip=1 / chroma_qp_offset=-2 / threads=30 / lookahead_threads=5 / sliced_threads=0 / nr=0 / decimate=1 / interlaced=0 / bluray_compat=0 / constrained_intra=0 / bframes=3 / b_pyramid=2 / b_adapt=1 / b_bias=0 / direct=3 / weightb=1 / open_gop=0 / weightp=2 / keyint=250 / keyint_min=25 / scenecut=40 / intra_refresh=0 / rc_lookahead=50 / rc=crf / mbtree=1 / crf=24.0 / qcomp=0.60 / qpmin=0 / qpmax=69 / qpstep=4 / vbv_maxrate=4000 / vbv_bufsize=8000 / crf_max=0.0 / nal_hrd=none / filler=0 / ip_ratio=1.40 / aq=1:1.00
Color range : Limited
Color primaries : BT.709
Transfer characteristics : BT.709
Matrix coefficients : BT.601
Codec configuration box : avcC

Audio
ID : 2
Format : AAC LC SBR PS
Format/Info : Advanced Audio Codec Low Complexity with Spectral Band Replication and Parametric Stereo
Commercial name : HE-AACv2
Format settings : NBC
Codec ID : mp4a-40-29
Duration : 10 s 679 ms
Duration_LastFrame : -3 ms
Bit rate mode : Constant
Bit rate : 32.2 kb/s
Channel(s) : 2 channels
Channel layout : C
Sampling rate : 44.1 kHz
Frame rate : 21.533 FPS (2048 SPF)
Compression mode : Lossy
Stream size : 42.0 KiB (2%)
Default : Yes
Alternate group : 1
alias
Awatar użytkownika

DaVinci Resolve brak audio

27.02.2021, 14:56

a ten nie działający mp4 to z czego pochodzi?
wygląda jak z jakiegoś komunikatora albo chińskiego smartfon

używa do kodowania audio AAC LC SBR PS, nie stosowanego w urządzeniach filmujących
to niekompatybilny ze standardami kodek którego DR nie odczyta
Jeżyk-1

DaVinci Resolve brak audio

wczoraj, 12:05

Ściągnięte z Internetu.
alias
Awatar użytkownika

DaVinci Resolve brak audio

wczoraj, 12:21

jedyna szansa to go przekodować do innego formatu dowolnym darmowym konwerterem
było o tym wielokrotnie na tym forum, na pewno coś znajdziesz
Jeżyk-1

DaVinci Resolve brak audio

wczoraj, 17:27

No szkoda. Myślałem że coś się uda w samym programie zrobić. A znają Państwo jakiś program co skonwertuje same audio bez video ? Bo kilka już zainstalowałem ale zmieniają też video.
alias
Awatar użytkownika

DaVinci Resolve brak audio

wczoraj, 22:33

Jeżyk-1 pisze:Źródło posta No szkoda. Myślałem że coś się uda w samym programie zrobić. A znają Państwo jakiś program co skonwertuje same audio bez video ? Bo kilka już zainstalowałem ale zmieniają też video.

ffmpeg to zrobi, ale wymaga pisania skryptów i to jest wyższa szkoła jazdy

Wróć do „DaVinci Resolve”



Kto jest online

Użytkownicy przeglądający to forum: Obecnie na forum nie ma żadnego zarejestrowanego użytkownika i 1 gość

Chmura tagów:

Filmowanie lustrzankamivideodslrBlackmagic Pocket Cinema Camera 6KSony A6300 A6500 A7mk3 A7S3Zhiyun Crane 3S | WeeBill LabCanon C70 mk2 C200 C300SamyangDJI Ronin-S Mavic Air Phantom ProSony FX6 FX9GradingPanasonic S1 S1h GH5s GH5Gimbal